Grave of The Fireflies 1988 1080p BluRay x264-PSYCHD | Mộ Đom Đóm

gianlan123

Level 5
Grave of The Fireflies 1988 1080p BluRay x264-PSYCHD

Mộ Đom Đóm ~ Sub Việt





Mã:
[mediainfo]
Video
ID                                       : 1
Format                                   : AVC
Format/Info                              : Advanced Video Codec
Format profile                           : High@L4.1
Format settings, CABAC                   : Yes
Format settings, ReFrames                : 4 frames
Codec ID                                 : V_MPEG4/ISO/AVC
Duration                                 : 1h 28mn
Bit rate                                 : 7 324 Kbps
Width                                    : 1 920 pixels
Height                                   : 1 040 pixels
Display aspect ratio                     : 1.85:1
Frame rate mode                          : Constant
Frame rate                               : 23.976 fps
Color space                              : YUV
Chroma subsampling                       : 4:2:0
Bit depth                                : 8 bits
Scan type                                : Progressive
Bits/(Pixel*Frame)                       : 0.153
Stream size                              : 4.42 GiB (81%)
Writing library                          : x264 core 125 r2200 999b753
Encoding settings                        : cabac=1 / ref=4 / deblock=1:0:0 / analyse=0x3:0x113 / me=umh / subme=8 / psy=1 / psy_rd=1.00:0.00 / mixed_ref=1 / me_range=16 / chroma_me=1 / trellis=1 / 8x8dct=1 / cqm=0 / deadzone=21,11 / fast_pskip=1 / chroma_qp_offset=-2 / threads=12 / lookahead_threads=2 / sliced_threads=0 / nr=0 / decimate=1 / interlaced=0 / bluray_compat=0 / constrained_intra=0 / bframes=3 / b_pyramid=2 / b_adapt=2 / b_bias=0 / direct=3 / weightb=1 / open_gop=0 / weightp=2 / keyint=240 / keyint_min=24 / scenecut=40 / intra_refresh=0 / rc_lookahead=50 / rc=2pass / mbtree=1 / bitrate=7324 / ratetol=1.0 / qcomp=0.60 / qpmin=0 / qpmax=69 / qpstep=4 / cplxblur=20.0 / qblur=0.5 / ip_ratio=1.40 / aq=1:1.00
Language                                 : English
Default                                  : Yes
Forced                                   : No

Audio
ID                                       : 2
Format                                   : DTS
Format/Info                              : Digital Theater Systems
Mode                                     : 16
Format settings, Endianness              : Big
Codec ID                                 : A_DTS
Duration                                 : 1h 28mn
Bit rate mode                            : Constant
Bit rate                                 : 1 509 Kbps
Channel(s)                               : 6 channels
Channel(s)_Original                      : 2 channels
Channel positions                        : Front: L R
Sampling rate                            : 48.0 KHz
Bit depth                                : 24 bits
Compression mode                         : Lossy
Stream size                              : 956 MiB (17%)
Language                                 : jap
Default                                  : Yes
Forced                                   : No

Text
ID                                       : 3
Format                                   : UTF-8
Codec ID                                 : S_TEXT/UTF8
Codec ID/Info                            : UTF-8 Plain Text
Language                                 : English
Default                                  : No
Forced                                   : No

Menu
00:00:00.000                             : en:00:00:00.000
00:03:27.541                             : en:00:03:27.541
00:13:24.429                             : en:00:13:24.429
00:25:54.595                             : en:00:25:54.595
00:36:15.715                             : en:00:36:15.715
00:43:36.364                             : en:00:43:36.364
00:52:10.252                             : en:00:52:10.252
00:56:29.386                             : en:00:56:29.386
01:04:10.346                             : en:01:04:10.346
01:13:30.322                             : en:01:13:30.322
01:19:35.646                             : en:01:19:35.646
01:25:33.920                             : en:01:25:33.920



[/mediainfo]


Nội Dung : Grave Of The Fireflies là bộ anime được dựa theo cuốn tiểu thuyết cùng tên của Nosaka Akiyuki. Bộ phim đặt trong bối cảnh giai đoạn cuối của Chiến tranh thế giới 2 ở Nhật Bản, kể lại câu chuyện chua xót nhưng cảm động về tình anh em của hai đứa trẻ mồ côi Seita và em gái Setsuko.

Hai anh em mất mẹ sau cuộc thả bom dữ dội của không quân Mỹ vào thành phố Kobe trong khi cha của hai đứa đang chiến đấu cho Hải quân hoàng gia Nhật. Seita và Setsuko phải vật lộn để tồn tại giữa một bên là nạn đói và một bên là sự thờ ơ đến nhẫn tâm của những người xung quanh, trong đó có cả những người họ hàng của hai đứa trẻ. Grave Of The Fireflies không chỉ là một câu chuyện ngụ ngôn về lòng tự trọng hơn và trên hết là về tinh thần phản chiến của người dân Nhật Bản qua số phận hai đứa trẻ.











Link FShare.vn


Link 4Share.vn


Link Subscene.Com


+ KHO GAME PC , PHIM HD , GHOST , SOFTWARE ĐỒ SỘ NHẤT VIỆT NAM
-----


 
Loading...
Top