1. Dismiss Notice
  2. Hi Khách !
    Để xây dựng cộng đồng lớn thì chúng ta cần những người đam mê , nhiệt huyết với công việc. Hãy tham gia quản lý Bam.vn cùng chúng tôi ! Chi tiết Click
    Dismiss Notice

[Hành Động|Hài] Gun Shy 2017 720p BluRay x264 DTS-MT ~ Tay Súng Nghiệp Dư

Thảo luận trong 'Phim' bắt đầu bởi gianlan123, 12 Tháng mười một 2017.

  1. gianlan123 Level 3

    Gun Shy 2017 720p BluRay x264 DTS-MT
    Tay Súng Nghiệp Dư

    [​IMG]




    Mã:
    
    Video
    ID                                       : 1
    Format                                   : AVC
    Format/Info                              : Advanced Video Codec
    Format profile                           : High@L4.1
    Format settings, CABAC                   : Yes
    Format settings, ReFrames                : 12 frames
    Codec ID                                 : V_MPEG4/ISO/AVC
    Duration                                 : 1 h 31 min
    Bit rate                                 : 5 640 kb/s
    Width                                    : 1 280 pixels
    Height                                   : 536 pixels
    Display aspect ratio                     : 2.40:1
    Frame rate mode                          : Constant
    Frame rate                               : 23.976 (24000/1001) FPS
    Color space                              : YUV
    Chroma subsampling                       : 4:2:0
    Bit depth                                : 8 bits
    Scan type                                : Progressive
    Bits/(Pixel*Frame)                       : 0.343
    Stream size                              : 3.61 GiB (79%)
    Default                                  : Yes
    Forced                                   : No
    
    Audio
    ID                                       : 2
    Format                                   : DTS
    Format/Info                              : Digital Theater Systems
    Mode                                     : 16
    Format settings, Endianness              : Big
    Codec ID                                 : A_DTS
    Duration                                 : 1 h 31 min
    Bit rate mode                            : Constant
    Bit rate                                 : 1 509 kb/s
    Channel(s)                               : 6 channels
    Channel positions                        : Front: L C R, Side: L R, LFE
    Sampling rate                            : 48.0 kHz
    Frame rate                               : 93.750 FPS (512 spf)
    Bit depth                                : 24 bits
    Compression mode                         : Lossy
    Stream size                              : 990 MiB (21%)
    Title                                    : English
    Language                                 : English
    Default                                  : Yes
    Forced                                   : No
    
    
    
    









    [​IMG]

    [​IMG]

    [​IMG]

    [​IMG]

    [​IMG]










     

    Loading...

Chia sẻ trang này