1. Dismiss Notice
  2. Hi Khách !
    Để xây dựng cộng đồng lớn thì chúng ta cần những người đam mê , nhiệt huyết với công việc. Hãy tham gia quản lý Bam.vn cùng chúng tôi ! Chi tiết Click
    Dismiss Notice

[Hành Động] Hard Target 1993 UNRATED 1080p BluRay x264-LiViDiTY | Mục Tiêu Thép

Thảo luận trong 'Phim' bắt đầu bởi gianlan123, 12 Tháng mười một 2017.

  1. gianlan123 Level 3

    Hard Target 1993 UNRATED 1080p BluRay x264-LiViDiTY
    Mục Tiêu Thép

    [​IMG]




    Mã:
    
    
    Video
    ID                                       : 1
    Format                                   : AVC
    Format/Info                              : Advanced Video Codec
    Format profile                           : High@L4.1
    Format settings                          : CABAC / 4 Ref Frames
    Format settings, CABAC                   : Yes
    Format settings, ReFrames                : 4 frames
    Codec ID                                 : V_MPEG4/ISO/AVC
    Duration                                 : 1 h 39 min
    Bit rate                                 : 9 474 kb/s
    Width                                    : 1 920 pixels
    Height                                   : 1 040 pixels
    Display aspect ratio                     : 1.85:1
    Frame rate mode                          : Constant
    Frame rate                               : 23.976 (24000/1001) FPS
    Color space                              : YUV
    Chroma subsampling                       : 4:2:0
    Bit depth                                : 8 bits
    Scan type                                : Progressive
    Bits/(Pixel*Frame)                       : 0.198
    Stream size                              : 6.44 GiB (84%)
    Writing library                          : x264 core 133 r2334 a3ac64b
    Encoding settings                        : cabac=1 / ref=4 / deblock=1:0:0 / analyse=0x3:0x113 / me=umh / subme=7 / psy=1 / psy_rd=1.00:0.00 / mixed_ref=1 / me_range=16 / chroma_me=1 / trellis=1 / 8x8dct=1 / cqm=0 / deadzone=21,11 / fast_pskip=0 / chroma_qp_offset=-2 / threads=6 / lookahead_threads=1 / sliced_threads=0 / nr=0 / decimate=1 / interlaced=0 / bluray_compat=0 / constrained_intra=0 / bframes=3 / b_pyramid=2 / b_adapt=1 / b_bias=0 / direct=1 / weightb=1 / open_gop=0 / weightp=2 / keyint=250 / keyint_min=23 / scenecut=40 / intra_refresh=0 / rc_lookahead=40 / rc=2pass / mbtree=1 / bitrate=9474 / ratetol=1.0 / qcomp=0.60 / qpmin=0 / qpmax=69 / qpstep=4 / cplxblur=20.0 / qblur=0.5 / ip_ratio=1.40 / aq=1:1.00
    Default                                  : Yes
    Forced                                   : No
    
    Audio
    ID                                       : 2
    Format                                   : DTS
    Format/Info                              : Digital Theater Systems
    Codec ID                                 : A_DTS
    Duration                                 : 1 h 39 min
    Bit rate mode                            : Constant
    Bit rate                                 : 1 509 kb/s
    Channel(s)                               : 6 channels
    Channel positions                        : Front: L C R, Side: L R, LFE
    Sampling rate                            : 48.0 kHz
    Frame rate                               : 93.750 FPS (512 SPF)
    Bit depth                                : 24 bits
    Compression mode                         : Lossy
    Stream size                              : 1.05 GiB (14%)
    Language                                 : English
    Default                                  : Yes
    Forced                                   : No
    
    Menu
    00:00:00.000                             : en:00:00:00.000
    00:05:51.643                             : en:00:05:51.643
    00:16:06.507                             : en:00:16:06.507
    00:20:01.492                             : en:00:20:01.492
    00:26:02.644                             : en:00:26:02.644
    00:29:34.398                             : en:00:29:34.398
    00:34:35.198                             : en:00:34:35.198
    00:38:30.934                             : en:00:38:30.934
    00:42:52.028                             : en:00:42:52.028
    00:51:56.822                             : en:00:51:56.822
    01:00:37.592                             : en:01:00:37.592
    01:05:00.480                             : en:01:05:00.480
    01:08:57.633                             : en:01:08:57.633
    01:16:42.348                             : en:01:16:42.348
    01:27:22.946                             : en:01:27:22.946
    01:35:13.499                             : en:01:35:13.499
    
    
    



















     

    Loading...

Chia sẻ trang này