1. Dismiss Notice
  2. Hi Khách !
    Để xây dựng cộng đồng lớn thì chúng ta cần những người đam mê , nhiệt huyết với công việc. Hãy tham gia quản lý Bam.vn cùng chúng tôi ! Chi tiết Click
    Dismiss Notice

[Kinh dị] Starship Troopers 1997 1080p BluRay x264-hV | Nhện Khổng Lồ

Thảo luận trong 'Phim' bắt đầu bởi gianlan123, 12 Tháng mười một 2017.

  1. gianlan123 Level 3

    Starship Troopers 1997 1080p BluRay x264-hV
    Nhện Khổng Lồ

    [​IMG]




    Mã:
    
    
    Video
    ID                                       : 2
    Format                                   : AVC
    Format/Info                              : Advanced Video Codec
    Format profile                           : High@L5.1
    Format settings                          : CABAC / 8 Ref Frames
    Format settings, CABAC                   : Yes
    Format settings, ReFrames                : 8 frames
    Codec ID                                 : V_MPEG4/ISO/AVC
    Duration                                 : 2 h 9 min
    Bit rate                                 : 9 677 kb/s
    Width                                    : 1 920 pixels
    Height                                   : 1 040 pixels
    Display aspect ratio                     : 1.85:1
    Frame rate mode                          : Constant
    Frame rate                               : 23.976 FPS
    Color space                              : YUV
    Chroma subsampling                       : 4:2:0
    Bit depth                                : 8 bits
    Scan type                                : Progressive
    Bits/(Pixel*Frame)                       : 0.202
    Stream size                              : 8.56 GiB (85%)
    Writing library                          : x264 core 56 svn-667C
    Encoding settings                        : cabac=1 / ref=5 / deblock=1:-4:-4 / analyse=0x3:0x133 / me=umh / subme=6 / brdo=1 / mixed_ref=1 / me_range=16 / chroma_me=1 / trellis=1 / 8x8dct=1 / cqm=2 / deadzone=4,6 / chroma_qp_offset=0 / threads=3 / nr=0 / decimate=1 / mbaff=0 / bframes=3 / b_pyramid=1 / b_adapt=1 / b_bias=0 / direct=3 / wpredb=1 / bime=1 / keyint=250 / keyint_min=25 / scenecut=40(pre) / rc=2pass / bitrate=9677 / ratetol=1.0 / rceq=\'blurCplx^(1-qComp)\' / qcomp=0.60 / qpmin=10 / qpmax=51 / qpstep=4 / cplxblur=20.0 / qblur=0.5 / ip_ratio=1.40 / pb_ratio=1.30 / zones=171650,186472,b=0.15 / aq=1:0.3:15.0
    Language                                 : English
    Default                                  : Yes
    Forced                                   : No
    
    Audio
    ID                                       : 1
    Format                                   : DTS
    Format/Info                              : Digital Theater Systems
    Codec ID                                 : A_DTS
    Duration                                 : 2 h 9 min
    Bit rate mode                            : Constant
    Bit rate                                 : 1 510 kb/s
    Channel(s)                               : 6 channels
    Channel positions                        : Front: L C R, Side: L R, LFE
    Sampling rate                            : 48.0 kHz
    Frame rate                               : 93.750 FPS (512 SPF)
    Bit depth                                : 24 bits
    Compression mode                         : Lossy
    Stream size                              : 1.37 GiB (13%)
    Language                                 : English
    Default                                  : Yes
    Forced                                   : No
    
    
    
    
















     

    Loading...

Chia sẻ trang này